L'assemblee stellaire Index du Forum

FAQ Rechercher Membres Groupes S’enregistrer Profil Se connecter pour vérifier ses messages privés Connexion
 
Sujet suivant
Sujet précédent
Poster un nouveau sujet Répondre au sujet  L'assemblee stellaire Index du Forum » L'assemblee stellaire » Militaires
Auteur Message
phifrasc


Hors ligne

Inscrit le: 20 Mar 2016
Messages: 83
Localisation: Nice

MessagePosté le: Ven 14 Juil - 06:27 (2017) Répondre en citant




Andrea Corr - Lifelines (2011) FLAC > bit.ly/2tON9qu






















































Andrea Corr - Lifelines (2011) FLAC, htmlpad 2014 keygen


985d112f2e
Gerry's Reel 922-11-2008 : 09:45 06-01-2012 Only When I Sleep (from Talk on Corners) 07Christina Bjordal - Twinkles 06What's Wrong With Me 03

22-11-2008 : 12:47 06-01-2012 "State of Independence" Vangelis, Jon Anderson 5:37 6Clipse Pussy 17July 2009, 13:06The Corrs / HomeUsed drive : Optiarc DVD RW AD-7173S Adapter: 0 ID: 0Read mode : SecureUtilize accurate stream : YesDefeat audio cache : YesMake use of C2 pointers : NoRead offset correction : 48Overread into Lead-In and Lead-Out : NoFill up missing offset samples with silence : YesDelete leading and trailing silent blocks : NoNull samples used in CRC calculations : YesUsed interface : Installed external ASPI interfaceGap handling : Appended to previous trackUsed output format : User Defined EncoderSelected bitrate : 768 kBit/sQuality : HighAdd ID3 tag : NoCommand line compressor : C:Program FilesExact Audio CopyFLACFLAC.EXEAdditional command line options : -6 -V -T "ARTIST=%a" -T "TITLE=%t" -T "ALBUM=%g" -T "DATE=%y" -T "TRACKNUMBER=%n" -T "GENRE=%m" -T "COMMENT=%e" %s -o %dTOC of the extracted CD Track Start Length Start sector End sector --------------------------------------------------------- 1 0:00.00 4:20.12 0 19511 2 4:20.12 5:08.58 19512 42669 3 9:28.70 4:26.00 42670 62619 4 13:54.70 3:49.25 62620 79819 5 17:44.20 3:53.25 79820 97319 6 21:37.45 3:14.60 97320 111929 7 24:52.30 3:43.72 111930 128726 8 28:36.27 4:17.33 128727 148034 9 32:53.60 3:47.07 148035 165066 10 36:40.67 2:57.45 165067 178386 11 39:38.37 3:39.15 178387 194826 12 43:17.52 2:27.30 194827 205881Track 1 Filename E:StuffThe CorrsHome01 - My Lagan Love.wav Pre-gap length 0:00:02.00 Peak level 98.8 % Track quality 100.0 % Test CRC 1DAF7DBA Copy CRC 1DAF7DBA Copy OKTrack 2 Filename E:StuffThe CorrsHome02 - Spancill Hill.wav Peak level 98.8 % Track quality 100.0 % Test CRC 6D91FF19 Copy CRC 6D91FF19 Copy OKTrack 3 Filename E:StuffThe CorrsHome03 - Peggy Gordon.wav Peak level 98.8 % Track quality 100.0 % Test CRC D900FA42 Copy CRC D900FA42 Copy OKTrack 4 Filename E:StuffThe CorrsHome04 - Black Is The Colour.wav Peak level 100.0 % Track quality 100.0 % Test CRC 00E9EE5A Copy CRC 00E9EE5A Copy OKTrack 5 Filename E:StuffThe CorrsHome05 - Heart Like A Wheel.wav Peak level 98.8 % Track quality 100.0 % Test CRC 8ADE1817 Copy CRC 8ADE1817 Copy OKTrack 6 Filename E:StuffThe CorrsHome06 - Buachaill On Eirne.wav Peak level 98.8 % Track quality 100.0 % Test CRC E35FD6A2 Copy CRC E35FD6A2 Copy OKTrack 7 Filename E:StuffThe CorrsHome07 - Old Hag.wav Peak level 98.8 % Track quality 100.0 % Test CRC 60C860ED Copy CRC 60C860ED Copy OKTrack 8 Filename E:StuffThe CorrsHome08 - Moorlough Shore.wav Peak level 98.8 % Track quality 99.9 % Test CRC 68BD7D00 Copy CRC 68BD7D00 Copy OKTrack 9 Filename E:StuffThe CorrsHome09 - Old Town.wav Peak level 98.8 % Track quality 100.0 % Test CRC C98A22E3 Copy CRC C98A22E3 Copy OKTrack 10 Filename E:StuffThe CorrsHome10 - Dimming Of The Day.wav Peak level 98.8 % Track quality 100.0 % Test CRC 8038FD97 Copy CRC 8038FD97 Copy OKTrack 11 Filename E:StuffThe CorrsHome11 - Brid Og Ni Mhaille.wav Pre-gap length 0:00:00.38 Peak level 98.8 % Track quality 100.0 % Test CRC 3AE3D1F1 Copy CRC 3AE3D1F1 Copy OKTrack 12 Filename E:StuffThe CorrsHome12 - Haste To The Wedding.wav Peak level 98.8 % Track quality 100.0 % Test CRC 3A64FAE1 Copy CRC 3A64FAE1 Copy OKNo errors occurredEnd of status report The Corrs - Dreams: The Ultimate Corrs Collection 2006 : Ireland : Irish Pop-Rock : 2006 : FLAC (tracks+.cue) : lossless : 74:53:01verry : 8 9 : 435 verry 18--11 22:05 ( 8 ) [] Unplugged 14 - Everybody Hurts, Everybody [] [] JsiodAdvanced Member Andrea Corr - Lifelines (2011) : Andrea Corr : Lifelines : 2011 : Irish Pop-Rock : Lossless : 42:08 : 251 Mb Andrea Corr - , - "The Corrs"Radio 06Many other songs from In Blue have been used in television programmes

download final exam interchange 1.rarComics de toystory pornowww.bokep negro gadis gemuk ngentot ( download ).comtorrent rover album 2013Tweetbot_for_mac_1.2.2_cracked-addswifi password cracker v4.6.2Queer as Folk 5x14 rmvbeleusis game download-addskamapothai penkal picSon of sardar sanjay dutt entry music download
Publicité






MessagePosté le: Ven 14 Juil - 06:27 (2017)

PublicitéSupprimer les publicités ?
Montrer les messages depuis:   
Poster un nouveau sujet Répondre au sujet

Sujet suivant
Sujet précédent

Index | Panneau d’administration | creer un forum | Forum gratuit d’entraide | Annuaire des forums gratuits | Signaler une violation | Conditions générales d'utilisation

 

Powered by phpBB © 2001, 2018 phpBB Group :: Theme zoneCopper designed by yassineb.
Traduction par : phpBB-fr.com